Sivasspor 1-2 Beşiktaş -Maçın Özeti, Golleri - 16 Nisan 2016 Cumartesi

Bu konuyu okuyanlar

mazruf

Guru
Emektar
Sivasspor 1-2 Beşiktaş | Süper Lig 29. Hafta

M.Sivasspor - Beşiktaş maçının özeti- Video

Maçın Golleri - Video (58' Mario Gomez, 62' Oğuzhan Özyakup, 90' Aatif Chahechouhe)

mario_1.jpg


Sivas'ta da fire vermeyen Kara Kartal, şampiyonluk yolunda bir virajı daha hasarsız döndü! Siyah beyazlılar, Mario Gomez'in yıldızlaştığı maçta Sivasspor'u 2-1 yendi, şampiyonluk için geri sayıma devam etti!

Maça beklendiği gibi hızlı başlayan Beşiktaş, ilk bölümlerde Olcay ve Mario Gomez'le gole çok yaklaştı. Ancak ilk 45 dakikadan gol sesi çıkmadı.

Kara Kartal'ın aradığı gol ise 58. dakikada geldi. Kerim Frei'nin müthiş pasını asiste çeviren Mario Gomez, bu sezonki 22. golünü Sivasspor ağlarına gönderdi ve Beşiktaş'ı 1-0 öne geçirdi.

Bu golden sadece 4 dakika sonra yeniden sahneye çıkan Gomez, ceza sahasında İbrahim'in müdahelesiyle yerde kalınca Halis Özkahya beyaz noktayı gösterdi. Atışın başına geçen Oğuzhan da farkı ikiye çıkardı.

Sivasspor, kalan dakikalarda gol için vites yükseltirken, ev sahibi ekibin aradığı gol 90+3'te Aatıf'la geldi. Ancak bu gol puan için Sivasspor yetmedi ve Beşiktaş, Sivas deplasmanından 2-1 galip ayrıldı.

Bu sonuçla 69 puana yükselen Beşiktaş, maç fazlasıyla en yakın rakibi Fenerbahçe ile puan farkını 8'e çıkardı. 24 puanda kalan Sivasspor ise ateş hattından çıkamadı. (LİG TV)

upload_2016-4-16_20-58-26.png
 
Son düzenleme:

mazruf

Guru
Emektar
10 kişi kapanan bir takıma bol bol şut çekmek lazım ama ilk yarı hiç düşünmedik. 2. yarıda Frei yeteneğini konuşturup kilidi açtırdı.

Son dakikada ise klasik Beşiktaş sahneye çıktı.

Bu Olcay ve İsmail'e artık tahammül edemiyorum.:( Her iki futbolcu da yeteneksizlik abidesi. Son golde Burhan içlerinden geçip golü attırdı.

upload_2016-4-16_21-16-42.png


upload_2016-4-16_21-15-43.png


Haftaya Beck cezalı. Yine Serdar oynayacak.
 
Her maç olcay ilk 11 yahu anlamıyorum kenarda töre var tolgay var sok birini şu olcaydan daha fazla iş yapar ya her maç aynı stres golde asisti yapan frei çıktı anlamıyorum benim göremediğim bişi mi var bu olcay da tam güzel bişi yaptı dicem yine kaybediyor ...
 

Süleyman Alkan

Profesör
Cezalı
Takıma acilen sol bek lazım, olcay her hafta olduğu gibi bu haftada krize soktu bizi bende anlamıyorum bu adam nasıl her hafta ilk 11 de ..
 

Süleyman Alkan

Profesör
Cezalı
Hatem ben arfa haberi de var umarım şampiyonlukğun ardından güzel transferler olur daha az kriz geçirmeli haftalar görürüz.. :)
 
Hocam en iyisi dişarda izlemek hoş bu projeksyon yansıması da dışarda çok iyi değil ama digitürk vb ücretli kablolu yayın hizmeti verenlerle uğraşılmıyor..
Maçı izlemeyi demiyorum özet görüntüler resmen çöp, oyuncuları seçemiyorum, 480p bile değildir. Başka yere de vermiyorlar özetleri bu görüntüye mecbur kalıyoruz.
 
Aha alın bakın, rezalet.

Kod:
General
Complete name  : C:\Users\ali\Desktop\ligtvcomtr_tauri_haber_16_04_svs_bjk_16nisan.mp4
Format  : MPEG-4
Format profile  : Base Media / Version 2
Codec ID  : mp42 (isom)
File size  : 27.2 MiB
Duration  : 5mn 35s
Overall bit rate mode  : Variable
Overall bit rate  : 681 Kbps
Encoded date  : UTC 2016-04-16 18:22:40
Tagged date  : UTC 2016-04-16 18:22:40

Video
ID  : 1
Format  : AVC
Format/Info  : Advanced Video Codec
Format profile  : Baseline@L3
Format settings, CABAC  : No
Format settings, ReFrames  : 2 frames
Codec ID  : avc1
Codec ID/Info  : Advanced Video Coding
Duration  : 5mn 35s
Bit rate mode  : Constant
Bit rate  : 600 Kbps
Width  : 640 pixels
Height  : 360 pixels
Display aspect ratio  : 16:9
Frame rate mode  : Constant
Frame rate  : 25.000 fps
Color space  : YUV
Chroma subsampling  : 4:2:0
Bit depth  : 8 bits
Scan type  : Progressive
Bits/(Pixel*Frame)  : 0.104
Stream size  : 24.6 MiB (90%)
Language  : English
Encoded date  : UTC 2016-04-16 18:22:40
Tagged date  : UTC 2016-04-16 18:22:40
Color range  : Limited

Audio
ID  : 2
Format  : AAC
Format/Info  : Advanced Audio Codec
Format profile  : HE-AAC / LC
Codec ID  : 40
Duration  : 5mn 35s
Bit rate mode  : Variable
Bit rate  : 62.7 Kbps
Maximum bit rate  : 82.1 Kbps
Channel(s)  : 2 channels
Channel positions  : Front: L R
Sampling rate  : 48.0 KHz / 24.0 KHz
Frame rate  : 23.438 fps (1024 spf)
Compression mode  : Lossy
Stream size  : 2.51 MiB (9%)
Language  : English
Encoded date  : UTC 2016-04-16 18:22:40
Tagged date  : UTC 2016-04-16 18:22:40
 

SDN Son Haberler

Son mesajlar

Üst